<?xml version="1.0" standalone="no"?>
<!DOCTYPE svg PUBLIC "-//W3C//DTD SVG 1.1//EN" "http://www.w3.org/Graphics/SVG/1.1/DTD/svg11.dtd" >
<svg xmlns="http://www.w3.org/2000/svg">
<metadata>Generated by IcoMoon</metadata>
<defs>
<font id="omFont" horiz-adv-x="1024">
<font-face units-per-em="1024" ascent="880.64" descent="-143.36" />
<missing-glyph horiz-adv-x="1024" />
<glyph unicode="&#x20;" horiz-adv-x="512" d="" />
<glyph unicode="&#xe005;" glyph-name="link" d="M725.333 853.333q50.333 0 97.167-19t83.833-56 56-83.833 19-97.167q0-50-19.167-97.167t-55.833-83.833l-128-128q-3.667-3.667-11-10.333-35.667-31.667-79.667-48.167t-90.333-16.5q-58.333 0-110.333 25-39 18.333-70.667 50t-50 70.667q25 25 60.333 25 12.333 0 25-3.667 21.667-35 56.667-56.667 41-25 89-25 33.333 0 64.667 12.667t56 37.333l128 128q24.667 24.667 37.333 56t12.667 64.667-12.667 64.667-37.333 56-56 37.333-64.667 12.667-64.667-12.667-56-37.333l-89.667-89.667q-42.667 11.667-88.333 11.667-7.333 0-20.667-0.667 6.667 7.333 10.333 11l128 128q36.667 36.667 83.833 55.833t97.167 19.167zM426.667 554.667q58.333 0 110.333-25 39-18.333 70.667-50t50-70.667q-25-25-60.333-25-12.333 0-25 3.667-21.667 35-56.667 56.667-41 25-89 25-33.333 0-64.667-12.667t-56-37.333l-128-128q-24.667-24.667-37.333-56t-12.667-64.667 12.667-64.667 37.333-56 56-37.333 64.667-12.667 64.667 12.667 56 37.333l89.667 89.667q42.667-11.667 88.333-11.667 7.333 0 20.667 0.667-6.667-7.333-10.333-11l-128-128q-37-37-83.833-56t-97.167-19q-50 0-97.167 19.167t-83.833 55.833q-37 37-56 83.833t-19 97.167 19 97.167 56 83.833l128 128q3.667 3.667 11 10.333 35.667 31.667 79.667 48.167t90.333 16.5z" />
<glyph unicode="&#xe600;" glyph-name="angle-down-400" horiz-adv-x="621" d="M38.4 542.4l272-272 272 272 22.4-22.4-294.4-294.4-294.4 294.4z" />
<glyph unicode="&#xe601;" glyph-name="angle-down-500" horiz-adv-x="640" d="M48 544l272-272 272 272 28-28-300-300-300 300z" />
<glyph unicode="&#xe602;" glyph-name="angle-down-700" horiz-adv-x="656" d="M56 560l272-272 272 272 40-40-312-312-312 312z" />
<glyph unicode="&#xe603;" glyph-name="angle-left-400" horiz-adv-x="349" d="M332.8 656l-272-272 272-272-22.4-22.4-294.4 294.4 294.4 294.4z" />
<glyph unicode="&#xe604;" glyph-name="angle-left-500" horiz-adv-x="360" d="M344 656l-272-272 272-272-28-28-300 300 300 300z" />
<glyph unicode="&#xe605;" glyph-name="angle-left-700" horiz-adv-x="384" d="M368 656l-272-272 272-272-40-40-312 312 312 312z" />
<glyph unicode="&#xe606;" glyph-name="angle-right-400" horiz-adv-x="349" d="M16 656l272-272-272-272 22.4-22.4 294.4 294.4-294.4 294.4z" />
<glyph unicode="&#xe607;" glyph-name="angle-right-500" horiz-adv-x="360" d="M16 656l272-272-272-272 28-28 300 300-300 300z" />
<glyph unicode="&#xe608;" glyph-name="angle-right-700" horiz-adv-x="384" d="M16 656l272-272-272-272 40-40 312 312-312 312z" />
<glyph unicode="&#xe609;" glyph-name="angle-up-400" horiz-adv-x="621" d="M38.4 225.6l272 272 272-272 22.4 22.4-294.4 294.4-294.4-294.4z" />
<glyph unicode="&#xe60a;" glyph-name="angle-up-500" horiz-adv-x="640" d="M48 216l272 272 272-272 28 28-300 300-300-300z" />
<glyph unicode="&#xe60b;" glyph-name="angle-up-700" horiz-adv-x="656" d="M56 208l272 272 272-272 40 40-312 312-312-312z" />
<glyph unicode="&#xe60c;" glyph-name="close-400" d="M148.8 723.2l22.4 22.4 704-704-22.4-22.4-704 704zM852.8 747.2l22.4-22.4-704-704-22.4 22.4 704 704z" />
<glyph unicode="&#xe60d;" glyph-name="close-500" d="M146 722l28 28 704-704-28-28-704 704zM850 750l28-28-704-704-28 28 704 704z" />
<glyph unicode="&#xe60e;" glyph-name="close-700" d="M140 716l40 40 704-704-40-40-704 704zM844 756l40-40-704-704-40 40 704 704z" />
<glyph unicode="&#xe60f;" glyph-name="pin-outline" d="M914.603 572.331l-170.581 171.52c-32.085 32.256-88.021 32.597-120.747 0.256-8.363-8.363-14.933-18.603-17.835-26.837-27.861-58.112-57.771-94.507-96.171-116.352l-9.259-4.48c-41.301-20.693-97.493-41.771-201.344-41.771-11.349 0-22.229-2.219-32.683-6.485-20.651-8.619-37.504-25.387-46.165-46.251-8.491-20.651-8.491-44.416 0-65.067 4.437-10.624 10.667-20.096 18.56-27.776l138.027-138.027-163.072-228.395 228.352 163.072 137.685-137.685c7.936-8.064 17.323-14.464 27.989-18.816 10.539-4.395 21.461-6.571 32.683-6.571s22.144 2.219 32.64 6.571c21.248 8.747 37.675 25.259 46.080 45.995 4.395 10.325 6.613 21.632 6.613 32.768 0 103.936 21.077 160.085 41.728 201.429 21.163 42.325 58.411 74.581 117.504 102.997 11.563 4.437 21.76 10.923 30.336 19.499 32.939 33.365 32.768 87.509-0.341 120.405zM690.688 367.488c-34.944-70.101-50.688-143.787-50.987-239.104l-341.035 340.949c91.264 0 162.731 14.293 230.229 46.251l10.027 4.48c59.691 29.824 105.301 80.768 144.555 163.584l167.424-172.843c-79.488-38.101-130.389-83.627-160.213-143.317z" />
<glyph unicode="&#xe611;" glyph-name="expand" d="M1024 896v-416l-160 160-192-192-96 96 192 192-160 160zM448 224l-192-192 160-160h-416v416l160-160 192 192z" />
<glyph unicode="&#xe612;" glyph-name="zoom-900" d="M764 474.4c0-79.2-26.4-151.2-72-209.6l273.6-273.6-62.4-62.4-273.6 274.4c-57.6-44-129.6-70.4-208-70.4-188.8 0-341.6 152.8-341.6 341.6s152.8 341.6 341.6 341.6 342.4-152.8 342.4-341.6zM421.6 728c-140 0-253.6-113.6-253.6-253.6s113.6-253.6 253.6-253.6 253.6 113.6 253.6 253.6-112.8 253.6-253.6 253.6z" />
<glyph unicode="&#xe613;" glyph-name="contract" d="M448 320v-416l-160 160-192-192-96 96 192 192-160 160zM1024 800l-192-192 160-160h-416v416l160-160 192 192z" />
<glyph unicode="&#xe614;" glyph-name="checkmark-circle" d="M512 896c-282.77 0-512-229.23-512-512s229.23-512 512-512 512 229.23 512 512-229.23 512-512 512zM416 64l-212 276 94 98 118-150 370 302 46-46-416-480z" />
<glyph unicode="&#xe615;" glyph-name="checkmark" d="M864 768l-480-480-224 224-160-160 384-384 640 640z" />
<glyph unicode="&#xe616;" glyph-name="play" d="M192 768l640-384-640-384z" />
<glyph unicode="&#xe617;" glyph-name="pause" d="M128 768h320v-768h-320zM576 768h320v-768h-320z" />
<glyph unicode="&#xe618;" glyph-name="warning" d="M999.014-50.278l-456.090 800.307c-6.298 11.059-18.125 17.869-30.925 17.869s-24.576-6.81-30.925-17.869l-456.038-800.307c-6.195-10.854-6.093-24.115 0.256-34.867s18.022-17.357 30.618-17.357h912.128c12.493 0 24.218 6.605 30.618 17.357 6.349 10.752 6.451 24.013 0.358 34.867zM568.32-0.102h-112.64v102.4h112.64v-102.4zM568.32 179.098h-112.64v307.2h112.64v-307.2z" />
<glyph unicode="&#xe619;" glyph-name="info" d="M512 896c-282.77 0-512-229.23-512-512s229.23-512 512-512 512 229.23 512 512-229.23 512-512 512zM448 704h128v-128h-128v128zM640 64h-256v64h64v256h-64v64h192v-320h64v-64z" />
<glyph unicode="&#xe61a;" glyph-name="spam" d="M1024 160l-288 736h-448l-288-288v-448l288-288h448l288 288v448l-288 288zM576 64h-128v128h128v-128zM576 320h-128v384h128v-384z" />
<glyph unicode="&#xe61b;" glyph-name="cross-400" d="M496 816h32v-416h416v-32h-416v-416h-32v416h-416v32h416v416z" />
<glyph unicode="&#xe61c;" glyph-name="cross-500" d="M492 816h40v-412h412v-40h-412v-412h-40v412h-412v40h412v412z" />
<glyph unicode="&#xe61d;" glyph-name="cross-700" d="M484 816h56v-404h404v-56h-404v-404h-56v404h-404v56h404v404z" />
<glyph unicode="&#xe61e;" glyph-name="menu-500" d="M128 640h768v-85.333h-768v85.333zM128 426.667h768v-85.333h-768v85.333zM128 213.333h768v-85.333h-768v85.333z" />
<glyph unicode="&#xe61f;" glyph-name="pencil" d="M847.923 694.374c-73.83 73.882-129.28 62.822-129.28 62.822l-554.291-554.291-51.712-243.866 243.866 51.712 554.24 554.24c0 0 11.11 55.45-62.822 129.382zM341.965 40.090l-83.098-17.92c-8.038 15.002-17.715 30.003-35.379 47.718-17.664 17.664-32.717 27.29-47.718 35.328l17.971 83.149 24.013 24.013c0 0 45.261-0.922 96.307-51.968 51.098-51.098 52.019-96.358 52.019-96.358l-24.115-23.962z" />
<glyph unicode="&#xe900;" glyph-name="phone" d="M704 256c-64-64-64-128-128-128s-128 64-192 128-128 128-128 192 64 64 128 128-128 256-192 256-192-192-192-192c0-128 131.5-387.5 256-512s384-256 512-256c0 0 192 128 192 192s-192 256-256 192z" />
<glyph unicode="&#xe901;" glyph-name="location" d="M512.064 328.128c105.888 0 192 86.144 192 192s-86.112 192-192 192c-105.888 0-192-86.112-192-192s86.112-192 192-192zM512.064 680.128c88.256 0 160-71.744 160-160s-71.744-160-160-160c-88.256 0-160 71.744-160 160s71.744 160 160 160zM512 896c-211.776 0-384-170.112-384-384.032 0-224 192.032-453.152 332.032-614.208 0.512-0.64 22.976-25.76 50.752-25.76 0.064 0 2.336 0 2.464 0 27.744 0 50.24 25.12 50.752 25.76 140.064 161.056 332.064 390.176 332.064 614.208 0 213.92-172.256 384.032-384.064 384.032zM515.744-60.256c-0.672-0.64-2.624-2.048-4.32-3.136-0.32 0.864-2.688 2.752-4.128 4.256-117.28 134.944-315.296 362.688-315.296 571.104 0 176.448 143.584 320.032 320 320.032 176.512 0 320.064-143.584 320.064-320.064 0-208.384-198.016-436.128-316.32-572.192z" />
<glyph unicode="&#xe902;" glyph-name="lastfm" d="M403.149 226.458c-21.453-19.251-62.669-57.856-131.277-57.856-80.947 0-158.925 70.963-158.925 184.474 0 145.459 93.184 192.358 164.762 192.358 103.219 0 125.85-62.259 153.958-148.582l37.53-118.272c37.478-114.637 107.878-206.848 310.784-206.848 145.51 0 244.019 44.902 244.019 163.123 0 95.795-54.016 145.459-154.829 169.114l-75.059 16.486c-51.61 11.827-66.867 33.075-66.867 68.608 0 40.192 31.642 63.846 83.251 63.846 56.32 0 86.784-21.299 91.494-72.141l117.299 14.182c-9.37 106.394-82.074 150.17-201.728 150.17-105.574 0-208.742-40.192-208.742-169.062 0-80.384 38.707-131.226 135.987-154.88l79.821-18.893c59.802-14.182 79.77-39.066 79.77-73.37 0-43.725-42.24-61.44-122.010-61.44-118.426 0-177.971 62.669-206.080 148.941l-38.758 118.272c-49.254 153.651-107.418 210.432-263.424 210.432-139.059 0-274.125-109.978-274.125-296.755 0-179.763 129.638-276.685 265.933-276.685 98.56 0 148.582 34.611 173.056 52.378l-35.84 102.4z" />
<glyph unicode="&#xe903;" glyph-name="vimeo" d="M0 587.63l41.594-54.544c0 0 85.77 67.608 114.36 33.802 28.588-33.802 137.736-441.956 174.17-517.246 31.8-66.030 119.518-153.32 215.714-90.982 96.136 62.34 415.84 335.286 473.066 657.616 57.18 322.226-384.72 254.726-431.53-26.010 116.99 70.236 179.436-28.538 119.57-140.372-59.758-111.724-114.36-184.592-142.952-184.592-28.538 0-50.49 74.768-83.188 205.446-33.798 135.102-33.592 378.46-174.116 350.87-132.518-26.012-306.688-233.988-306.688-233.988z" />
<glyph unicode="&#xe904;" glyph-name="user" d="M758.784 130.662c-126.208 45.978-166.554 84.787-166.554 167.885 0 49.869 38.554 33.587 55.45 124.928 7.014 37.888 41.062 0.614 47.616 87.091 0 34.458-18.586 43.059-18.586 43.059s9.472 51.046 13.158 90.266c4.506 48.947-28.262 175.309-203.469 175.309-175.155 0-208.026-126.362-203.418-175.309 3.686-39.219 13.158-90.266 13.158-90.266s-18.637-8.55-18.637-43.059c6.502-86.477 40.55-49.203 47.565-87.091 16.947-91.341 55.501-75.059 55.501-124.928 0-83.098-40.346-121.907-166.554-167.885-126.669-46.080-208.896-93.133-208.896-125.235 0-32.051 0-107.776 0-107.776h962.56c0 0 0 75.725 0 107.776s-82.278 79.104-208.896 125.235z" />
<glyph unicode="&#xe905;" glyph-name="format_quote" d="M598 170l84 172h-128v256h256v-256l-84-172h-128zM256 170l86 172h-128v256h256v-256l-86-172h-128z" />
<glyph unicode="&#xe906;" glyph-name="tag" d="M1004.512 451.744l-160 256c-23.36 37.408-64.384 60.16-108.512 60.16h-608c-70.688 0-128-57.312-128-128v-512c0-70.688 57.312-128 128-128h608c44.128 0 85.12 22.752 108.512 60.192l160 256c25.984 41.44 25.984 94.144 0 135.648zM950.24 350.016l-160-256.064c-11.744-18.816-32.064-30.048-54.24-30.048h-608c-35.296 0-64 28.736-64 64v512c0 35.296 28.704 64 64 64h608c22.176 0 42.496-11.264 54.24-30.048l160-256c12.896-20.64 12.896-47.264 0-67.84zM736 479.904c-53.056 0-96-42.976-96-96s42.944-96 96-96c52.992 0 96 43.008 96 96 0 53.024-43.008 96-96 96zM736 319.872c-35.36 0-64 28.672-64 64s28.64 64 64 64c35.328 0 64-28.672 64-64 0-35.296-28.672-64-64-64z" />
<glyph unicode="&#xe907;" glyph-name="age" d="M856.343 213.333c-13.757 5.159-186.573 78.24-200.329 83.399-34.391 12.897-39.55 30.952-26.653 61.904 17.196 40.41 33.531 81.679 48.148 123.809 24.074 67.923 19.775 135.846-13.757 199.469s-87.698 98.015-159.919 96.296c-71.362-1.72-120.369-38.69-148.742-104.034-25.793-60.185-34.391-121.229-12.037-183.134 13.757-40.41 31.812-79.1 45.568-119.51 6.878-18.915 9.458-39.55 12.037-52.447-103.174-49.867-200.329-95.436-295.765-142.724-9.458-5.159-22.354-16.336-23.214-25.793-2.579-50.727-0.86-102.314-0.86-156.48 109.192 0 558.858 0 667.191 0l108.332 219.244zM905.35 192.699c-26.653 11.177-53.306 22.354-79.1 33.531l-234.72-234.72c116.071 0 233.001 0 350.791 0 0 49.008-2.579 96.296 0.86 142.724 0.86 30.952-11.177 47.288-37.83 58.465z" />
<glyph unicode="&#xe908;" glyph-name="condition" d="M461.243 485.597c0-76.93 0-153.859-0.167-230.789 0-5.686 1.505-9.533 5.853-13.546 35.12-31.106 55.69-69.571 58.199-116.9 4.181-75.424-54.52-150.849-128.439-165.399-89.974-17.894-174.931 41.81-187.976 132.62-8.696 61.376 10.369 112.886 57.53 153.859 2.843 2.509 4.515 8.027 4.515 12.208 0.167 151.016 0.167 302.032 0.167 453.049 0 39.97 15.386 72.080 51.509 90.643 62.38 31.943 138.306-9.7 138.641-87.466 0.502-76.093 0.167-152.187 0.167-228.28zM326.784 630.258c0-3.846 0-7.358 0-10.87 0-129.61-0.167-259.219 0.334-388.829 0-11.372-3.512-17.894-12.877-24.082-37.963-24.919-54.018-60.54-48.499-105.862 6.69-54.185 61.711-94.49 114.893-83.954 58.366 11.539 94.155 67.732 79.94 125.429-6.69 27.427-20.905 49.837-45.823 63.718-10.536 5.853-13.881 13.045-13.714 25.086 0.502 129.108 0.334 258.049 0.334 387.157 0 3.846 0 7.693 0 12.041-25.253 0.167-49.335 0.167-74.588 0.167zM776.153 673.406c13.881-4.014 27.093-7.693 40.137-11.539-3.846-36.96-35.789-67.564-72.581-68.902-12.208-0.502-24.751-0.167-36.458 2.509-35.287 8.027-63.049 40.806-68.4 78.936-3.679 25.922-2.676 51.509 6.188 76.595 14.717 41.642 55.858 66.059 103.019 60.039 33.949-4.348 56.527-22.744 67.063-55.523 0.502-1.338 0.669-2.676 1.003-4.014 0.167-1.003 0.502-2.174 0.836-4.014-13.379-3.178-26.591-6.188-38.13-8.864-6.522 8.696-11.372 18.062-18.563 24.584-22.075 19.734-56.359 12.877-70.24-13.714-9.867-18.731-10.536-39.134-8.696-59.37 1.171-11.707 3.512-23.748 7.693-34.786 7.191-19.065 22.744-27.26 42.646-27.26 17.058 0 32.11 11.372 38.799 29.267 2.174 5.017 3.679 10.202 5.686 16.055zM615.939 758.028c0-28.431-12.041-46.994-33.782-53.683-29.936-9.031-58.199 9.365-62.213 40.304-2.341 18.062-1.171 35.287 10.536 49.837 13.881 17.058 32.444 20.403 52.847 15.051 16.724-4.348 29.768-21.574 31.943-40.973 0.502-3.846 0.502-7.693 0.669-10.536zM586.17 757.861c-0.669 4.014-1.171 11.038-2.676 17.56-1.84 7.86-7.526 12.208-15.553 12.543-7.024 0.334-16.891-6.355-17.226-13.379-0.669-12.208-0.836-24.919 1.505-36.96 2.509-12.376 16.389-15.219 26.424-7.358 8.362 6.857 6.69 16.055 7.526 27.594z" />
<glyph unicode="&#xe909;" glyph-name="door" d="M917.024 782.2c0-265.935 0-530.465 0-796.199-5.419 0-10.437 0-15.254 0-196.29 0-392.781 0-589.071-0.201-7.627 0-11.641 2.208-15.454 9.032-62.219 112.395-124.839 224.79-187.258 337.185-2.208 3.813-3.813 10.035-2.208 13.447 28.299 64.426 53.789 130.459 86.504 192.677 68.641 130.258 177.424 209.135 322.534 236.23 27.697 5.218 56.398 7.225 84.698 7.426 101.356 0.803 202.713 0.401 304.069 0.401 3.613 0 7.225 0 11.44 0zM871.062 734.633c-3.613 0-5.82 0-8.229 0-89.916 0-179.832 0.201-269.949-0.201-20.271-0.201-40.944-1.004-60.814-4.616-141.297-25.49-244.259-102.561-306.678-232.016-23.683-48.972-44.356-99.349-66.032-149.124-1.606-3.613-0.803-9.835 1.204-13.447 54.391-98.546 109.184-196.691 163.776-295.238 3.412-6.021 7.025-8.229 13.849-8.229 174.212 0.201 348.425 0.201 522.637 0.201 3.211 0 6.423 0 10.236 0 0 234.424 0 468.045 0 702.67zM217.565 365.535c5.62 12.644 10.437 23.884 15.454 35.123 13.648 30.507 27.296 61.015 40.743 91.522 43.152 98.145 118.818 157.152 221.178 184.047 32.113 8.43 65.029 12.243 98.145 12.042 73.659 0 147.117 0 220.776 0 3.011 0 6.021 0 9.634 0 0-107.98 0-215.156 0-322.735-201.91 0-403.218 0-605.93 0zM777.734 642.308c-3.813 0-7.025 0-10.236 0-56.398 0-112.997 0.602-169.396-0.201-23.884-0.401-48.169-2.007-71.652-6.222-66.434-12.042-123.233-42.349-167.991-93.93-32.916-38.134-49.775-84.898-69.043-130.057 0-0.201 0.201-0.602 0.602-1.405 162.17 0 324.742 0 487.915 0-0.201 77.272-0.201 153.941-0.201 231.815zM764.688 242.703c-11.641 0-23.282-0.201-35.123 0-13.849 0.201-24.687 10.637-24.687 23.683s9.835 22.68 24.085 22.88c24.085 0.201 48.169 0.201 72.053 0 13.849-0.201 23.683-10.035 23.884-23.081 0.201-13.648-9.634-23.282-24.285-23.483-11.842-0.201-23.884 0-35.926 0z" />
<glyph unicode="&#xe90a;" glyph-name="luggage" d="M298.52 618.886c11.038 0 22.075 0.167 33.28-0.167 5.519-0.167 7.693 1.171 8.027 7.191 3.345 54.018 48.165 102.015 101.848 109.039 7.358 1.003 14.884 1.505 22.41 1.505 35.12 0.167 70.24 0.167 105.36 0 60.707-0.334 112.886-49.67 116.398-110.043 0.334-6.522 2.676-7.86 8.529-7.693 10.202 0.334 20.57 0.167 31.106 0.167 0-196.171 0-391.338 0-587.341-142.153 0-284.305 0-427.127 0 0.167 195.502 0.167 390.836 0.167 587.341zM605.068 619.388c1.338 19.4-16.724 36.96-38.13 36.96-35.287 0.167-70.742 0.334-106.029-0.334-7.693-0.167-16.055-2.843-22.744-6.69-10.703-6.355-17.393-16.389-18.062-29.936 62.213 0 123.756 0 184.966 0zM806.59 31.545c0 195.836 0 390.836 0 586.839 3.010 0.167 6.021 0.502 8.864 0.502 21.407-0.836 43.147 0.836 64.052-3.178 34.953-6.522 60.54-39.97 60.54-75.424 0.167-167.406 0-334.978 0-502.384 0-1.84 0-3.846 0-6.355-44.485 0-88.636 0-133.456 0zM217.075 31.211c-44.318 0-88.135 0-133.122 0 0 3.010 0 6.021 0 8.864 0 165.566 0 331.132 0 496.53 0 44.653 31.274 78.936 75.759 81.612 18.898 1.171 37.796 0.167 57.363 0.167 0-195.502 0-391.003 0-587.174z" />
<glyph unicode="&#xe90b;" glyph-name="passengers" d="M696.423 280.396c-13.757 5.159-26.653 11.177-40.41 16.336-34.391 12.897-39.55 30.952-26.653 61.904 17.196 40.41 33.531 81.679 48.148 123.809 24.074 67.923 19.775 135.846-13.757 199.469s-87.698 98.015-159.919 96.296c-71.362-1.72-120.369-38.69-148.742-104.034-25.793-60.185-34.391-121.229-12.037-183.134 13.757-40.41 31.812-79.1 45.568-119.51 6.878-18.915 9.458-39.55 12.037-52.447-103.174-49.867-200.329-95.436-295.765-142.724-9.458-5.159-22.354-16.336-23.214-25.793-2.579-50.727-0.86-102.314-0.86-156.48 109.192 0 217.525 0 326.717 0l288.887 286.307zM905.35 192.699c-26.653 11.177-53.306 22.354-79.1 33.531l-234.72-234.72c116.071 0 233.001 0 350.791 0 0 49.008-2.579 96.296 0.86 142.724 0.86 30.952-11.177 47.288-37.83 58.465z" />
<glyph unicode="&#xe90c;" glyph-name="transmission" d="M271.093 410.675c16.389 0 31.608 0 46.994 0 37.127 0 74.087 0.167 111.213-0.167 5.184 0 7.693 1.338 9.867 6.188 8.195 18.563 21.908 32.11 40.472 40.304 4.683 2.007 5.853 4.515 5.853 9.365-0.167 52.68-0.167 105.36 0 158.040 0 12.376-4.181 22.912-12.208 32.11-6.355 7.358-13.379 14.048-20.069 21.239-23.581 25.587-28.096 62.547-11.205 92.984 16.724 30.27 50.506 45.823 85.793 39.635 31.943-5.686 57.864-32.946 63.049-66.394 4.014-25.086-3.178-46.827-19.567-65.725-6.69-7.693-14.382-14.717-21.072-22.577-7.86-9.198-11.707-19.901-11.539-32.277 0.167-52.346 0.167-104.858 0-157.204 0-4.85 1.171-7.358 5.853-9.365 18.898-8.195 32.277-22.243 41.141-40.973 1.171-2.341 4.515-5.184 6.857-5.184 52.68-0.334 105.36-0.167 158.040 0 0.502 0 1.003 0.334 2.676 0.836 0 2.676 0 5.519 0 8.529 0 68.066 0 135.965 0 204.031 0 12.376-4.181 22.912-12.041 32.11-6.522 7.526-13.881 14.55-20.57 21.908-23.246 25.253-27.427 62.045-10.87 92.316 16.557 30.437 50.171 45.991 85.626 39.97 32.11-5.519 58.199-32.946 63.383-66.059 4.014-25.755-3.345-47.83-20.57-66.895-6.69-7.526-14.048-14.382-20.57-21.908-7.693-9.031-11.205-19.567-11.205-31.441 0.167-78.268 0-156.702 0-234.97 0-21.574-10.034-31.441-31.775-31.441-59.704 0-119.241 0-178.945 0.167-5.853 0-8.696-1.672-11.038-7.191-8.195-18.229-21.908-31.441-40.137-39.468-4.181-1.84-5.686-3.846-5.686-8.529 0.167-53.516 0.167-107.033 0.167-160.549 0-15.051 7.86-26.256 17.56-36.625 6.69-7.024 13.881-13.714 19.734-21.407 20.236-26.591 21.239-61.878 3.512-90.141-17.894-28.431-51.175-42.479-84.623-35.789-31.274 6.355-56.359 32.611-61.878 64.888-5.184 30.605 6.021 55.021 27.594 75.759 9.7 9.365 19.4 18.731 22.744 32.277 1.003 4.181 1.672 8.696 1.672 13.212 0.167 52.178 0 104.189 0.167 156.368 0 5.686-1.505 8.696-7.024 11.205-18.229 8.195-31.274 21.908-39.97 39.97-1.171 2.509-4.683 5.686-7.191 5.853-52.346 0.334-104.858 0.167-157.204 0.167-0.836 0-1.505-0.334-3.178-0.836 0-2.843 0-5.853 0-8.864 0-66.059 0.334-132.118-0.167-198.177-0.167-18.396 6.188-32.779 18.898-45.489 7.191-7.191 14.717-14.55 20.57-22.912 18.898-26.256 18.731-62.38 0.502-89.472-18.396-27.427-51.509-40.639-83.954-33.615-31.274 6.69-55.858 32.946-61.209 64.554-5.017 30.103 5.519 54.52 26.758 75.257 5.017 4.85 9.867 9.867 14.382 15.219 7.358 8.864 11.038 19.065 11.038 30.772 0 160.047 0 319.927 0 479.974 0 12.208-3.846 23.079-11.707 32.11-6.69 7.86-14.215 14.884-21.072 22.577-22.912 25.086-27.093 62.547-10.369 92.483 16.891 30.27 50.84 45.823 85.793 39.468 31.775-5.853 57.53-32.946 62.882-65.725 4.181-25.755-3.178-47.83-20.236-67.063-6.522-7.358-13.546-14.048-20.069-21.407-8.027-9.365-12.041-20.236-12.041-32.946 0.167-67.732 0-135.463 0-203.195 0.167-3.178 0.167-5.853 0.167-9.867z" />
<glyph unicode="&#xe90d;" glyph-name="calendar" d="M938.688 800h-138.688v64c0 17.696-14.304 32-32 32s-32-14.304-32-32v-64h-192v64c0 17.696-14.336 32-32 32s-32-14.304-32-32v-64h-192v64c0 17.696-14.336 32-32 32s-32-14.304-32-32v-64h-138.656c-47.136 0-85.344-38.176-85.344-85.312v-757.344c0-47.136 38.208-85.344 85.344-85.344h853.344c47.136 0 85.312 38.208 85.312 85.344v757.344c0 47.136-38.176 85.312-85.312 85.312zM960-42.656c0-11.776-9.568-21.344-21.312-21.344h-853.344c-11.776 0-21.344 9.568-21.344 21.344v757.344c0 11.744 9.568 21.312 21.344 21.312h138.656v-64c0-17.696 14.336-32 32-32s32 14.304 32 32v64h192v-64c0-17.696 14.336-32 32-32s32 14.304 32 32v64h192v-64c0-17.696 14.304-32 32-32s32 14.304 32 32v64h138.688c11.744 0 21.312-9.568 21.312-21.312v-757.344zM224 512h128v-96h-128zM224 352h128v-96h-128zM224 192h128v-96h-128zM448 192h128v-96h-128zM448 352h128v-96h-128zM448 512h128v-96h-128zM672 192h128v-96h-128zM672 352h128v-96h-128zM672 512h128v-96h-128z" />
<glyph unicode="&#xf023;" glyph-name="lock" horiz-adv-x="658" d="M0 54.857v329.143q0 22.857 16 38.857t38.857 16h18.286v109.714q0 105.143 75.429 180.571t180.571 75.429 180.571-75.429 75.429-180.571v-109.714h18.286q22.857 0 38.857-16t16-38.857v-329.143q0-22.857-16-38.857t-38.857-16h-548.571q-22.857 0-38.857 16t-16 38.857zM182.857 438.857h292.571v109.714q0 60.571-42.857 103.429t-103.429 42.857-103.429-42.857-42.857-103.429v-109.714z" />
<glyph unicode="&#xf07a;" glyph-name="shopping-cart" horiz-adv-x="951" d="M0 694.857q0 14.857 10.857 25.714t25.714 10.857h146.286q9.143 0 16.286-3.714t11.429-8.857 7.429-14 4.286-15.143 3.143-16.857 2.571-14.571h686.286q14.857 0 25.714-10.857t10.857-25.714v-292.571q0-13.714-9.143-24.286t-23.429-12.286l-596.571-69.714q0.571-4 2.571-12.286t3.429-15.143 1.429-12.571q0-9.143-13.714-36.571h525.714q14.857 0 25.714-10.857t10.857-25.714-10.857-25.714-25.714-10.857h-585.143q-14.857 0-25.714 10.857t-10.857 25.714q0 8 6.286 22.571t16.857 34 11.714 21.714l-101.143 470.286h-116.571q-14.857 0-25.714 10.857t-10.857 25.714zM219.429 0q0 30.286 21.429 51.714t51.714 21.429 51.714-21.429 21.429-51.714-21.429-51.714-51.714-21.429-51.714 21.429-21.429 51.714zM731.429 0q0 30.286 21.429 51.714t51.714 21.429 51.714-21.429 21.429-51.714-21.429-51.714-51.714-21.429-51.714 21.429-21.429 51.714z" />
<glyph unicode="&#xf07b;" glyph-name="folder" horiz-adv-x="951" d="M0 128v548.571q0 52.571 37.714 90.286t90.286 37.714h182.857q52.571 0 90.286-37.714t37.714-90.286v-18.286h384q52.571 0 90.286-37.714t37.714-90.286v-402.286q0-52.571-37.714-90.286t-90.286-37.714h-694.857q-52.571 0-90.286 37.714t-37.714 90.286z" />
<glyph unicode="&#xf099;" glyph-name="twitter" horiz-adv-x="951" d="M25.143 82.857q20-2.286 44.571-2.286 128.571 0 229.143 78.857-60 1.143-107.429 36.857t-65.143 91.143q18.857-2.857 34.857-2.857 24.571 0 48.571 6.286-64 13.143-106 63.714t-42 117.429v2.286q38.857-21.714 83.429-23.429-37.714 25.143-60 65.714t-22.286 88q0 50.286 25.143 93.143 69.143-85.143 168.286-136.286t212.286-56.857q-4.571 21.714-4.571 42.286 0 76.571 54 130.571t130.571 54q80 0 134.857-58.286 62.286 12 117.143 44.571-21.143-65.714-81.143-101.714 53.143 5.714 106.286 28.571-38.286-56-92.571-95.429 0.571-8 0.571-24 0-74.286-21.714-148.286t-66-142-105.429-120.286-147.429-83.429-184.571-31.143q-154.857 0-283.429 82.857z" />
<glyph unicode="&#xf09a;" glyph-name="facebook" horiz-adv-x="585" d="M54.286 360.571v169.143h145.714v124.571q0 106.286 59.429 164.857t158.286 58.571q84 0 130.286-6.857v-150.857h-89.714q-49.143 0-66.286-20.571t-17.143-61.714v-108h167.429l-22.286-169.143h-145.143v-433.714h-174.857v433.714h-145.714z" />
<glyph unicode="&#xf09b;" glyph-name="github" d="M0 365.714q0 119.429 58.857 220.286t159.714 159.714 220.286 58.857 220.286-58.857 159.714-159.714 58.857-220.286q0-143.429-83.714-258t-216.286-158.571q-15.429-2.857-22.571 4t-7.143 17.143v120.571q0 55.429-29.714 81.143 32.571 3.429 58.571 10.286t53.714 22.286 46.286 38 30.286 60 11.714 86q0 69.143-45.143 117.714 21.143 52-4.571 116.571-16 5.143-46.286-6.286t-52.571-25.143l-21.714-13.714q-53.143 14.857-109.714 14.857t-109.714-14.857q-9.143 6.286-24.286 15.429t-47.714 22-49.143 7.714q-25.143-64.571-4-116.571-45.143-48.571-45.143-117.714 0-48.571 11.714-85.714t30-60 46-38.286 53.714-22.286 58.571-10.286q-22.857-20.571-28-58.857-12-5.714-25.714-8.571t-32.571-2.857-37.429 12.286-31.714 35.714q-10.857 18.286-27.714 29.714t-28.286 13.714l-11.429 1.714q-12 0-16.571-2.571t-2.857-6.571 5.143-8 7.429-6.857l4-2.857q12.571-5.714 24.857-21.714t18-29.143l5.714-13.143q7.429-21.714 25.143-35.143t38.286-17.143 39.714-4 31.714 2l13.143 2.286q0-21.714 0.286-50.857t0.286-30.857q0-10.286-7.429-17.143t-22.857-4q-132.571 44-216.286 158.571t-83.714 258z" />
<glyph unicode="&#xf0ac;" glyph-name="globe" d="M0 365.714q0 119.429 58.857 220.286t159.714 159.714 220.286 58.857 220.286-58.857 159.714-159.714 58.857-220.286-58.857-220.286-159.714-159.714-220.286-58.857-220.286 58.857-159.714 159.714-58.857 220.286zM129.143 559.428q4-4 6.857-4.571 2.286-0.571 2.857-5.143t1.429-6.286 6.571 1.714q5.143-4.571 1.714-10.857 0.571 0.571 25.143-15.429 10.857-9.714 12-12 1.714-6.286-5.714-10.286-0.571 1.143-5.143 5.143t-5.143 2.286q-1.714-2.857 0.286-10.571t6-7.143q-4 0-5.429-9.143t-1.429-20.286-0.571-13.429l1.143-0.571q-1.714-6.857 3.143-19.714t12.286-11.143q-7.429-1.714 11.429-24.571 3.429-4.571 4.571-5.143 1.714-1.143 6.857-4.286t8.571-5.714 5.714-6q2.286-2.857 5.714-12.857t8-13.429q-1.143-3.429 5.429-11.429t6-13.143q-0.571 0-1.429-0.571t-1.429-0.571q1.714-4 8.857-8t8.857-7.429q0.571-1.714 1.143-5.714t1.714-6.286 4.571-1.143q1.143 11.429-13.714 35.429-8.571 14.286-9.714 16.571-1.714 2.857-3.143 8.857t-2.571 8.286q1.143 0 3.429-0.857t4.857-2 4.286-2.286 1.143-1.714q-1.714-4 1.143-10t6.857-10.571 9.714-10.857 6.857-7.429q3.429-3.429 8-11.143t0-7.714q5.143 0 11.429-5.714t9.714-11.429q2.857-4.571 4.571-14.857t2.857-13.714q1.143-4 4.857-7.714t7.143-5.429l9.143-4.571t7.429-4q2.857-1.143 10.571-6t12.286-6.571q5.714-2.286 9.143-2.286t8.286 1.429 7.714 2q8.571 1.143 16.571-8.571t12-12q20.571-10.857 31.429-6.286-1.143-0.571 0.286-4.286t4.571-8.857 5.143-8.286 3.143-4.857q2.857-3.429 10.286-8.571t10.286-8.571q3.429 2.286 4 5.143-1.714-4.571 4-11.429t10.286-5.714q8 1.714 8 18.286-17.714-8.571-28 10.286 0 0.571-1.429 3.143t-2.286 4.857-1.429 4.857 0 4.286 2.857 1.714q5.143 0 5.714 2t-1.143 7.143-2.286 7.429q-0.571 4.571-6.286 11.429t-6.857 8.571q-2.857-5.143-9.143-4.571t-9.143 5.143q0-0.571-0.857-3.143t-0.857-3.714q-7.429 0-8.571 0.571 0.571 1.714 1.429 10t2 12.857q0.571 2.286 3.143 6.857t4.286 8.286 2.286 7.143-2.571 5.429-10 1.429q-10.857-0.571-14.857-11.429-0.571-1.714-1.714-6t-2.857-6.571-5.143-4q-4-1.714-13.714-1.143t-13.714 2.857q-7.429 4.571-12.857 16.571t-5.429 21.143q0 5.714 1.429 15.143t1.714 14.286-3.143 14q1.714 1.143 5.143 5.429t5.714 6q1.143 0.571 2.571 0.857t2.571 0 2.286 0.857 1.714 3.429q-0.571 0.571-2.286 1.714-1.714 1.714-2.286 1.714 4-1.714 16.286 0.857t15.714-0.857q8.571-6.286 12.571 1.143 0 0.571-1.429 5.429t-0.286 7.714q2.857-15.429 16.571-5.143 1.714-1.714 8.857-2.857t10-2.857q1.714-1.143 4-3.143t3.143-2.571 2.857 0.286 4.857 3.714q5.714-8 6.857-13.714 6.286-22.857 10.857-25.143 4-1.714 6.286-1.143t2.571 5.429 0 8-0.857 7.143l-0.571 4.571v10.286l-0.571 4.571q-8.571 1.714-10.571 6.857t0.857 10.571 8.571 10.571q0.571 0.571 4.571 2t8.857 3.714 7.143 4.571q12 10.857 8.571 20 4 0 6.286 5.143-0.571 0-2.857 1.714t-4.286 2.857-2.571 1.143q5.143 2.857 1.143 9.143 2.857 1.714 4.286 6.286t4.286 5.714q5.143-6.857 12-1.143 4 4.571 0.571 9.143 2.857 4 11.714 6t10.571 5.429q4-1.143 4.571 1.143t0.571 6.857 1.714 6.857q2.286 2.857 8.571 5.143t7.429 2.857l9.714 6.286q1.714 2.286 0 2.286 10.286-1.143 17.714 6.286 5.714 6.286-3.429 11.429 1.714 3.429-1.714 5.429t-8.571 3.143q1.714 0.571 6.571 0.286t6 0.857q8.571 5.714-4 9.143-9.714 2.857-24.571-6.857-1.143-0.571-5.429-5.429t-7.714-5.429q1.143 0 2.571 2.857t2.857 6.286 2 4q3.429 4 12.571 8.571 8 3.429 29.714 6.857 19.429 4.571 29.143-6.286-1.143 1.143 5.429 7.429t8.286 6.857q1.714 1.143 8.571 2.571t8.571 4.286l1.143 12.571q-6.857-0.571-10 4t-3.714 12q0-1.143-3.429-4.571 0 4-2.571 4.571t-6.571-0.571-5.143-0.571q-5.714 1.714-8.571 4.286t-4.571 9.429-2.286 8.571q-1.143 2.857-5.429 6t-5.429 6q-0.571 1.143-1.429 3.143t-1.714 3.714-2.286 3.143-3.143 1.429-4-2.857-4.286-5.714-2.571-2.857q-1.714 1.143-3.429 0.857t-2.571-0.571-2.571-1.714-2.857-2q-1.714-1.143-4.857-1.714t-4.857-1.143q8.571 2.857-0.571 6.286-5.714 2.286-9.143 1.714 5.143 2.286 4.286 6.857t-4.857 8h2.857q-0.571 2.286-4.857 4.857t-10 4.857-7.429 3.429q-4.571 2.857-19.429 5.429t-18.857 0.286q-2.857-3.429-2.571-6t2.286-8 2-7.143q0.571-3.429-3.143-7.429t-3.714-6.857q0-4 8-8.857t5.714-12.286q-1.714-4.571-9.143-9.143t-9.143-6.857q-2.857-4.571-0.857-10.571t6-9.429q1.143-1.143 0.857-2.286t-2-2.571-3.143-2.286-3.714-2l-1.714-1.143q-6.286-2.857-11.714 3.429t-7.714 14.857q-4 14.286-9.143 17.143-13.143 4.571-16.571-0.571-2.857 7.429-23.429 14.857-14.286 5.143-33.143 2.286 3.429 0.571 0 8.571-4 8.571-10.857 6.857 1.714 3.429 2.286 10t0.571 7.714q1.714 7.429 6.857 13.143 0.571 0.571 4 4.857t5.429 7.714 0.286 3.429q20-2.286 28.571 6.286 2.857 2.857 6.571 9.714t6 9.714q5.143 3.429 8 3.143t8.286-3.143 8.286-2.857q8-0.571 8.857 6.286t-4.286 11.429q6.857-0.571 1.714 9.714-2.857 4-4.571 5.143-6.857 2.286-15.429-2.857-4.571-2.286 1.143-4.571-0.571 0.571-5.429-6t-9.429-10-9.143 2.857q-0.571 0.571-3.143 7.714t-5.429 7.714q-4.571 0-9.143-8.571 1.714 4.571-6.286 8.571t-13.714 4.571q10.857 6.857-4.571 15.429-4 2.286-11.714 2.857t-11.143-2.286q-2.857-4-3.143-6.571t2.857-4.571 6-3.143 6.571-2.286 4.857-1.714q8-5.714 4.571-8-1.143-0.571-4.857-2t-6.571-2.571-3.429-2.286q-1.714-2.286 0-8t-1.143-8q-2.857 2.857-5.143 10t-4 9.429q4-5.143-14.286-3.429l-5.714 0.571q-2.286 0-9.143-1.143t-11.714-0.571-7.714 4.571q-2.286 4.571 0 11.429 0.571 2.286 2.286 1.143-2.286 1.714-6.286 5.429t-5.714 4.857q-26.286-8.571-53.714-23.429 3.429-0.571 6.857 0.571 2.857 1.143 7.429 3.714t5.714 3.143q19.429 8 24 4l2.857 2.857q8-9.143 11.429-14.286-4 2.286-17.143 0.571-11.429-3.429-12.571-6.857 4-6.857 2.857-10.286-2.286 1.714-6.571 5.714t-8.286 6.286-8.571 2.857q-9.143 0-12.571-0.571-83.429-45.714-134.286-126.857zM501.143 14.857q0-3.429 1.143-9.143 117.714 20.571 200.571 108-1.714 1.714-7.143 2.571t-7.143 2q-10.286 4-13.714 4.571 0.571 4-1.429 7.429t-4.571 5.143-7.143 4.571-6.286 4q-1.143 1.143-4 3.429t-4 3.143-4.286 2.571-4.857 1.143-5.714-0.571l-1.714-0.571q-1.714-0.571-3.143-1.429t-3.143-1.714-2.286-1.714 0-1.429q-12 9.714-20.571 12.571-2.857 0.571-6.286 3.143t-6 4-5.714 0.857-6.571-4q-2.857-2.857-3.429-8.571t-1.143-7.429q-4 2.857 0 10t1.143 10.571q-1.714 3.429-6 2.571t-6.857-2.571-6.571-4.857-5.143-3.714-4.857-3.143-4.857-4.286q-1.714-2.286-3.429-6.857t-2.857-6.286q-1.143 2.286-6.571 3.714t-5.429 3.143q1.143-5.714 2.286-20t2.857-21.714q4-17.714-6.857-27.429-15.429-14.286-16.571-22.857-2.286-12.571 6.857-14.857 0-4-4.571-11.714t-4-12.286z" />
<glyph unicode="&#xf0d2;" glyph-name="pinterest" d="M0 365.714q0 119.429 58.857 220.286t159.714 159.714 220.286 58.857 220.286-58.857 159.714-159.714 58.857-220.286-58.857-220.286-159.714-159.714-220.286-58.857q-63.429 0-124.571 18.286 33.714 53.143 44.571 93.714 5.143 19.429 30.857 120.571 11.429-22.286 41.714-38.571t65.143-16.286q69.143 0 123.429 39.143t84 107.714 29.714 154.286q0 65.143-34 122.286t-98.571 93.143-145.714 36q-60 0-112-16.571t-88.286-44-62.286-63.143-38.286-74-12.286-76.571q0-59.429 22.857-104.571t66.857-63.429q17.143-6.857 21.714 11.429 1.143 4 4.571 17.714t4.571 17.143q3.429 13.143-6.286 24.571-29.143 34.857-29.143 86.286 0 86.286 59.714 148.286t156.286 62q86.286 0 134.571-46.857t48.286-121.714q0-97.143-39.143-165.143t-100.286-68q-34.857 0-56 24.857t-13.143 59.714q4.571 20 15.143 53.429t17.143 58.857 6.571 43.143q0 28.571-15.429 47.429t-44 18.857q-35.429 0-60-32.571t-24.571-81.143q0-41.714 14.286-69.714l-56.571-238.857q-9.714-40-7.429-101.143-117.714 52-190.286 160.571t-72.571 241.714z" />
<glyph unicode="&#xf0d5;" glyph-name="google-plus" horiz-adv-x="951" d="M18.286 104q0 46.286 25.429 85.714t67.714 65.714q74.857 46.857 230.857 57.143-18.286 24-27.143 42.286t-8.857 41.714q0 20.571 12 48.571-26.286-2.286-38.857-2.286-84.571 0-142.571 55.143t-58 139.714q0 46.857 20.571 90.857t56.571 74.857q44 37.714 104.286 56t124.286 18.286h238.857l-78.857-50.286h-74.857q42.286-36 64-76t21.714-91.429q0-41.143-14-74t-33.714-53.143-39.714-37.143-34-35.143-14-37.714q0-20.571 18.286-40.286t44.286-38.857 51.714-42 44-59.429 18.286-81.143q0-51.429-27.429-98.857-41.143-69.714-120.571-102.571t-170.286-32.857q-75.429 0-140.857 23.714t-98 78.571q-21.143 34.286-21.143 74.857zM124.571 130.285q0-40 20-70.571t52.286-47.429 68-25.143 72.857-8.286q33.143 0 63.714 7.429t56.571 22.286 41.714 41.714 15.714 62.286q0 14.286-4 28t-8.286 24-15.429 23.714-16.857 20-22 19.714-20.857 16.571-23.714 17.143-20.857 14.857q-9.143 1.143-27.429 1.143-30.286 0-60-4t-61.429-14.286-55.429-26.286-39.143-42.571-15.429-60.286zM185.143 698.285q0-26.286 5.714-55.714t18-58.857 29.714-52.857 42.857-38.286 55.143-14.857q21.714 0 44.571 9.429t37.714 24.857q30.286 32.571 30.286 90.857 0 33.143-9.714 71.429t-27.714 74-48.286 59.143-66.857 23.429q-24 0-47.143-11.143t-37.429-30q-26.857-33.714-26.857-91.429zM619.429 417.714v61.714h121.143v124h60v-124h121.714v-61.714h-121.714v-125.143h-60v125.143h-121.143z" />
<glyph unicode="&#xf0d7;" glyph-name="caret-down" horiz-adv-x="585" d="M0 475.428q0 14.857 10.857 25.714t25.714 10.857h512q14.857 0 25.714-10.857t10.857-25.714-10.857-25.714l-256-256q-10.857-10.857-25.714-10.857t-25.714 10.857l-256 256q-10.857 10.857-10.857 25.714z" />
<glyph unicode="&#xf0da;" glyph-name="caret-right" horiz-adv-x="366" d="M0 109.714v512q0 14.857 10.857 25.714t25.714 10.857 25.714-10.857l256-256q10.857-10.857 10.857-25.714t-10.857-25.714l-256-256q-10.857-10.857-25.714-10.857t-25.714 10.857-10.857 25.714z" />
<glyph unicode="&#xf0e0;" glyph-name="envelope" d="M0 18.285v453.714q25.143-28 57.714-49.714 206.857-140.571 284-197.143 32.571-24 52.857-37.429t54-27.429 62.857-14h1.143q29.143 0 62.857 14t54 27.429 52.857 37.429q97.143 70.286 284.571 197.143 32.571 22.286 57.143 49.714v-453.714q0-37.714-26.857-64.571t-64.571-26.857h-841.143q-37.714 0-64.571 26.857t-26.857 64.571zM0 627.428q0 44.571 23.714 74.286t67.714 29.714h841.143q37.143 0 64.286-26.857t27.143-64.571q0-45.143-28-86.286t-69.714-70.286q-214.857-149.143-267.429-185.714-5.714-4-24.286-17.429t-30.857-21.714-29.714-18.571-32.857-15.429-28.571-5.143h-1.143q-13.143 0-28.571 5.143t-32.857 15.429-29.714 18.571-30.857 21.714-24.286 17.429q-52 36.571-149.714 104.286t-117.143 81.429q-35.429 24-66.857 66t-31.429 78z" />
<glyph unicode="&#xf0e1;" glyph-name="linkedin" d="M0 695.428q0 42.286 29.429 70t76.857 27.714 76-27.714 29.143-70q0.571-41.714-28.857-69.714t-77.429-28h-1.143q-46.857 0-75.429 28t-28.571 69.714zM10.857-45.715v566.286h188.571v-566.286h-188.571zM303.429-45.715q1.143 228 1.143 369.714t-0.571 169.143l-0.571 27.429h188v-82.286h-1.143q11.429 18.286 23.429 32t32.286 29.714 49.714 24.857 65.429 8.857q97.714 0 157.143-64.857t59.429-190v-324.571h-188v302.857q0 60-23.143 94t-72.286 34q-36 0-60.286-19.714t-36.286-48.857q-6.286-17.143-6.286-46.286v-316h-188z" />
<glyph unicode="&#xf0e5;" glyph-name="comment-o" d="M0 365.714q0 99.429 68.571 183.714t186.286 133.143 257.143 48.857 257.143-48.857 186.286-133.143 68.571-183.714-68.571-183.714-186.286-133.143-257.143-48.857q-40 0-82.857 4.571-113.143-100-262.857-138.286-28-8-65.143-12.571h-2.857q-8.571 0-15.429 6t-9.143 15.714v0.571q-1.714 2.286-0.286 6.857t1.143 5.714 2.571 5.429l3.429 5.143t4 4.857 4.571 5.143q4 4.571 17.714 19.714t19.714 21.714 17.714 22.571 18.571 29.143 15.429 33.714 14.857 43.429q-89.714 50.857-141.429 125.714t-51.714 160.571zM73.143 365.714q0-64 40.857-122t115.143-100.286l49.714-28.571-15.429-54.857q-13.714-52-40-98.286 86.857 36 157.143 97.714l24.571 21.714 32.571-3.429q39.429-4.571 74.286-4.571 116.571 0 218 39.714t161.143 107.143 59.714 145.714-59.714 145.714-161.143 107.143-218 39.714-218-39.714-161.143-107.143-59.714-145.714z" />
<glyph unicode="&#xf111;" glyph-name="circle" d="M0 365.714q0 119.429 58.857 220.286t159.714 159.714 220.286 58.857 220.286-58.857 159.714-159.714 58.857-220.286-58.857-220.286-159.714-159.714-220.286-58.857-220.286 58.857-159.714 159.714-58.857 220.286z" />
<glyph unicode="&#xf167;" glyph-name="youtube" d="M15.429 148.571q0 133.714 14.857 200 8 33.714 33.143 56.571t58.857 26.857q104.571 11.429 316.571 11.429t317.143-11.429q33.143-4 58.571-26.857t32.857-56.571q14.857-64 14.857-200 0-133.714-14.857-200-8-33.714-33.143-56.571t-58.286-26.286q-105.143-12-317.143-12t-317.143 12q-33.143 3.429-58.571 26.286t-32.857 56.571q-14.857 64-14.857 200zM78.857 290.857h60v-325.143h57.143v325.143h61.143v53.714h-178.286v-53.714zM152 877.714h60.571l40.571-150.286 38.857 150.286h58.286l-69.143-228v-154.857h-57.143v154.857q-8 42.286-34.857 121.143-21.143 58.857-37.143 106.857zM264.571 24.571q0-28 4.571-41.714 6.857-21.143 33.143-21.143 27.429 0 58.286 34.857v-30.857h50.857v282.286h-50.857v-216q-17.143-24-32.571-24-10.286 0-12 12-0.571 1.714-0.571 20v208h-50.857v-223.429zM350.857 587.428v100q0 45.714 16 66.857 21.714 29.143 60 29.143 39.429 0 60.571-29.143 16-21.143 16-66.857v-100q0-46.286-16-67.429-21.143-29.143-60.571-29.143-38.286 0-60 29.143-16 21.714-16 67.429zM402.286 577.714q0-40 24.571-40t24.571 40v120q0 39.429-24.571 39.429t-24.571-39.429v-120zM456-34.286h50.857v27.429q25.714-31.429 53.143-31.429 30.857 0 40.571 31.429 5.143 15.429 5.143 57.143v112.571q0 41.714-5.143 56.571-9.714 32-40.571 32-28.571 0-53.143-30.857v124h-50.857v-378.857zM506.857 20.571v172q12.571 12.571 25.714 12.571 22.286 0 22.286-38.286v-120.571q0-38.286-22.286-38.286-13.143 0-25.714 12.571zM545.714 554.857v225.143h52v-209.714q0-18.857 0.571-20 1.714-12.571 12-12.571 15.429 0 32.571 24.571v217.714h52v-285.143h-52v31.429q-30.286-35.429-58.857-35.429-26.286 0-33.714 21.143-4.571 13.714-4.571 42.857zM645.714 57.143q0-45.143 16.571-66.286 22.286-29.143 61.714-29.143 41.143 0 61.714 30.286 10.286 15.429 12 30.857 1.143 5.143 1.143 33.143v7.429h-52q0-29.143-1.143-34.857-4-20.571-22.857-20.571-26.286 0-26.286 39.429v49.714h102.286v58.857q0 45.143-15.429 66.286-22.286 29.143-60.571 29.143-38.857 0-61.143-29.143-16-21.143-16-66.286v-98.857zM696.571 140v26.286q0 38.857 25.714 38.857t25.714-38.857v-26.286h-51.429z" />
<glyph unicode="&#xf168;" glyph-name="xing" horiz-adv-x="805" d="M2.857 219.428q-5.714 9.714 0 20.571l144.571 256q0.571 0 0 0.571l-92 159.429q-6.857 12.571-0.571 21.143 5.143 8.571 18.286 8.571h136.571q22.857 0 37.714-25.714l93.714-163.429q-5.714-10.286-146.857-260.571-15.429-26.286-37.143-26.286h-136.571q-12 0-17.714 9.714zM306.286 308q10.286 18.286 303.429 538.286 14.286 25.714 36.571 25.714h137.714q12.571 0 17.714-8.571 6.286-9.143 0-21.143l-301.714-533.714v-0.571l192-351.429q6.286-11.429 0.571-21.143-5.714-8.571-18.286-8.571h-136.571q-24 0-37.714 25.714z" />
<glyph unicode="&#xf16d;" glyph-name="instagram" d="M0 39.428v652.571q0 46.286 33.143 79.429t79.429 33.143h652.571q46.286 0 79.429-33.143t33.143-79.429v-652.571q0-46.286-33.143-79.429t-79.429-33.143h-652.571q-46.286 0-79.429 33.143t-33.143 79.429zM97.714 62.857q0-14.857 10-24.857t24.857-10h610.857q14.286 0 24.571 10t10.286 24.857v370.286h-77.143q11.429-36 11.429-74.857 0-72-36.571-132.857t-99.429-96.286-137.143-35.429q-112.571 0-192.571 77.429t-80 187.143q0 38.857 11.429 74.857h-80.571v-370.286zM263.429 367.428q0-70.857 51.714-120.857t124.286-50q73.143 0 124.857 50t51.714 120.857-51.714 120.857-124.857 50q-72.571 0-124.286-50t-51.714-120.857zM600 573.143q0-16.571 11.429-28t28-11.429h99.429q16.571 0 28 11.429t11.429 28v94.286q0 16-11.429 27.714t-28 11.714h-99.429q-16.571 0-28-11.714t-11.429-27.714v-94.286z" />
<glyph unicode="&#xf16e;" glyph-name="flickr" d="M0 91.428v548.571q0 68 48.286 116.286t116.286 48.286h548.571q68 0 116.286-48.286t48.286-116.286v-548.571q0-68-48.286-116.286t-116.286-48.286h-548.571q-68 0-116.286 48.286t-48.286 116.286zM156.571 365.714q0-50.286 35.429-85.714t85.714-35.429 85.714 35.429 35.429 85.714-35.429 85.714-85.714 35.429-85.714-35.429-35.429-85.714zM478.857 365.714q0-50.286 35.429-85.714t85.714-35.429 85.714 35.429 35.429 85.714-35.429 85.714-85.714 35.429-85.714-35.429-35.429-85.714z" />
<glyph unicode="&#xf173;" glyph-name="tumblr" horiz-adv-x="585" d="M44.571 445.143v124q52 17.143 88.571 48 36.571 31.429 58.857 75.429 22.286 44.571 30.857 112h125.143v-221.714h208v-137.714h-208v-225.143q0-77.714 8-98.286 7.429-21.143 29.714-34.286 28.571-17.714 66.857-17.714 66.857 0 132.571 43.429v-138.286q-58.286-27.429-101.714-37.143-44-10.857-98.857-10.857-60 0-106.286 15.429-44.571 14.286-78.857 42.857-33.143 29.143-45.143 60-12.571 30.857-12.571 92v308h-97.143z" />
<glyph unicode="&#xf17d;" glyph-name="dribbble" d="M0 365.714q0 119.429 58.857 220.286t159.714 159.714 220.286 58.857 220.286-58.857 159.714-159.714 58.857-220.286-58.857-220.286-159.714-159.714-220.286-58.857-220.286 58.857-159.714 159.714-58.857 220.286zM64 365.714q0-70.857 25.143-135.143t70.857-115.143q28.571 50.857 70.571 95.143t81.429 71.143 74.571 46.286 56.857 27.429l21.143 7.429q2.286 0.571 7.429 2t7.429 2.571q-12 28-30.286 63.429-177.714-53.143-384.571-53.143-0.571-4-0.571-12zM72 442.857q172.571 0 346.286 45.714-68.571 121.714-139.429 216-78.857-37.143-133.714-106.286t-73.143-155.429zM200 76.571q105.143-85.714 238.857-85.714 75.429 0 146.286 29.714-24 137.714-80 284.571h-1.143l-1.143-0.571q-9.143-3.429-24.571-9.429t-57.714-28-78.286-46.857-74.857-65.429-58.857-84.571zM348 729.143q0.571 0.571 1.143 0.571-0.571 0-1.143-0.571zM350.286 729.714q74.857-97.143 140.571-218.286 39.429 14.857 74.286 34.571t55.143 35.143 37.429 32.571 21.429 23.143l7.143 10q-105.714 93.714-247.429 93.714-43.429 0-88.571-10.857zM519.429 455.428q14.286-30.286 25.143-54.286 1.143-3.429 3.714-10t4.286-9.429q20.571 2.857 42.571 4t42 1.143 39.429-0.857 36.571-2.286 32.286-3.143 27.429-3.714 20.857-3.429 14.286-2.571l5.714-1.143q-1.714 132.571-85.143 234.286l-0.571-0.571q-5.143-6.857-10.857-14t-24.857-25.429-40.571-34.571-57.143-37.143-75.143-36.857zM575.429 322.857q49.714-136.571 73.143-268 63.429 42.857 105.714 108.286t54.857 143.143q-120 34.286-233.714 16.571z" />
<glyph unicode="&#xf17e;" glyph-name="skype" d="M0 585.143q0 90.857 64.286 155.143t155.143 64.286q74.286 0 133.714-45.714 44 9.143 85.714 9.143 81.714 0 156.286-31.714t128.571-85.714 85.714-128.571 31.714-156.286q0-41.714-9.143-85.714 45.714-59.429 45.714-133.714 0-90.857-64.286-155.143t-155.143-64.286q-74.286 0-133.714 45.714-44-9.143-85.714-9.143-81.714 0-156.286 31.714t-128.571 85.714-85.714 128.571-31.714 156.286q0 41.714 9.143 85.714-45.714 59.429-45.714 133.714zM214.857 228q0-52.571 69.714-90t166.286-37.429q41.714 0 80 10.571t70 30.571 50.571 53.429 18.857 75.143q0 28.571-11.143 52.286t-27.714 39.143-41.714 28-47.143 19.429-50 13.143l-59.429 13.714q-17.143 4-25.143 6t-20 6.571-17.143 9.143-9.429 12-4.286 17.143q0 44 82.286 44 24.571 0 44-6.857t30.857-16.286 21.714-19.143 22.857-16.571 27.429-6.857q26.857 0 43.143 18.286t16.286 44q0 31.429-32 56.857t-81.143 38.571-104 13.143q-38.857 0-75.429-8.857t-68.286-26.857-50.857-49.714-19.143-73.429q0-34.857 10.857-60.857t32-43.143 45.714-27.714 58.857-18.571l83.429-20.571q51.429-12.571 64-20.571 18.286-11.429 18.286-34.286 0-22.286-22.857-36.857t-60-14.571q-29.143 0-52.286 9.143t-37.143 22-26 25.714-26.286 22-30.857 9.143q-28.571 0-43.143-17.143t-14.571-42.857z" />
<glyph unicode="&#xf180;" glyph-name="foursquare" horiz-adv-x="951" d="M0 365.714q0 42.857 30.286 73.143l335.429 335.429q30.286 30.286 73.143 30.286t73.143-30.286l151.429-151.429-227.429-228-107.429 107.429q-24 24-56.571 24-33.714 0-57.143-23.429l-68.571-69.143q-24-22.857-24-56.571 0-33.143 24-57.143l232-233.143q17.143-16 38.286-21.143l3.429-2.286h16q34.286 0 56.571 23.429l353.714 353.714 1.143-1.714q30.286-30.286 30.286-73.143t-30.286-73.143l-335.429-335.429q-29.714-30.286-72.857-30.286t-73.429 30.286l-335.429 335.429q-30.286 30.286-30.286 73.143zM172.571 377.143q0 12 8 20l69.143 68.571q7.429 8.571 20 8.571t20.571-8.571l144-144 328 328.571q8.571 8.571 20.571 8.571t20.571-8.571l68.571-68.571q8-8.571 8-20.571t-8-20.571l-417.143-417.143q-9.714-8.571-21.143-8.571-2.286 0-3.429 0.571-10.286 1.143-17.143 8l-232.571 233.143q-8 8.571-8 20.571z" />
<glyph unicode="&#xf189;" glyph-name="vk" horiz-adv-x="1097" d="M-0.571 573.714q0 6.286 1.714 9.143l2.286 3.429q8.571 10.857 32.571 10.857l156.571 1.143q6.857-1.143 13.143-3.714t9.143-4.857l2.857-1.714q9.143-6.286 13.714-18.286 11.429-28.571 26.286-59.143t23.429-46.571l9.143-16.571q16.571-34.286 32-59.429t27.714-39.143 23.714-22 19.429-8 15.429 2.857q1.143 0.571 2.857 2.857t6.857 12.571 7.714 26.857 5.429 46.286 0 71.429q-1.143 22.857-5.143 41.714t-8 26.286l-3.429 6.857q-14.286 19.429-48.571 24.571-7.429 1.143 2.857 13.714 9.714 10.857 21.714 17.143 30.286 14.857 136.571 13.714 46.857-0.571 77.143-7.429 11.429-2.857 19.143-7.714t11.714-13.714 6-18.286 2-26-0.571-31.429-1.429-40.286-0.857-47.143q0-6.286-0.571-24t-0.286-27.429 2-23.143 6.571-22.286 12.857-14q4.571-1.143 9.714-2.286t14.857 6.286 21.714 19.714 29.714 38.286 38.857 61.429q34.286 59.429 61.143 128.571 2.286 5.714 5.714 10t6.286 6l2.286 1.714 2.857 1.429t7.429 1.714 11.429 0.286l164.571 1.143q22.286 2.857 36.571-1.429t17.714-9.429l3.429-5.714q13.143-36.571-85.714-168-13.714-18.286-37.143-48.571-44.571-57.143-51.429-74.857-9.714-23.429 8-46.286 9.714-12 46.286-46.857h0.571l2.286-2.286q80.571-74.857 109.143-126.286 1.714-2.857 3.714-7.143t4-15.143-0.286-19.429-14.286-15.714-33.714-7.143l-146.286-2.286q-13.714-2.857-32 2.857t-29.714 12.571l-11.429 6.857q-17.143 12-40 36.571t-39.143 44.286-34.857 33.143-32.286 8.857q-1.714-0.571-4.571-2t-9.714-8.286-12.286-16.857-9.714-29.714-3.714-44.286q0-8.571-2-15.714t-4.286-10.571l-2.286-2.857q-10.286-10.857-30.286-12.571h-65.714q-40.571-2.286-83.429 9.429t-75.143 30.286-58.857 37.714-40.286 32.857l-14.286 13.714q-5.714 5.714-15.714 17.143t-40.857 52-60.571 86.286-70 120.571-74.571 155.429q-3.429 9.143-3.429 15.429z" />
<glyph unicode="&#xf19a;" glyph-name="wordpress" d="M0 365.714q0 104 40.571 198.857t109.143 163.429 163.429 109.143 198.857 40.571 198.857-40.571 163.429-109.143 109.143-163.429 40.571-198.857-40.571-198.857-109.143-163.429-163.429-109.143-198.857-40.571-198.857 40.571-163.429 109.143-109.143 163.429-40.571 198.857zM23.429 365.714q0-98.857 38.857-189.429t104.286-156 156-104.286 189.429-38.857 189.429 38.857 156 104.286 104.286 156 38.857 189.429-38.857 189.429-104.286 156-156 104.286-189.429 38.857-189.429-38.857-156-104.286-104.286-156-38.857-189.429zM72.571 365.714q0 93.143 38.286 178.857l209.714-574.286q-112 54.286-180 160.571t-68 234.857zM145.143 606.857q60 91.429 156.857 144.857t210 53.429q84 0 160.286-30.286t136.286-85.143h-5.714q-31.429 0-52.571-23.143t-21.143-54.571q0-6.857 1.143-13.714t2.286-12.286 4.571-13.143 5.143-12 6.857-12.857 7.143-12 8.286-13.714 8-13.143q36-61.143 36-121.143 0-10.857-1.429-22t-5.714-28.286-6.571-25.143-10-33.714-10-33.143l-43.429-146.286-158.857 472q26.286 1.714 50.286 4.571 10.857 1.143 14.857 10.571t-1.429 17.714-16.286 7.714l-117.143-5.714q-42.857 0.571-115.429 5.714-6.857 0.571-11.714-2.857t-6.571-8.571-0.857-10.571 5.143-9.429 11.143-4.571l45.714-4.571 68.571-187.429-96-288-160 475.429q26.286 1.714 50.286 4.571 10.857 1.143 14.857 10.571t-1.429 17.714-16.286 7.714l-117.143-5.714q-4 0-13.143 0.286t-14.857 0.286zM388-55.429l131.429 382.857 135.429-369.714q0.571-3.429 2.857-6.286-72-25.143-145.714-25.143-64 0-124 18.286zM732.571-13.715l134.286 387.429q33.714 96.571 33.714 157.714 0 24-3.429 45.143 54.286-99.429 54.286-210.857 0-119.429-59.429-220.286t-159.429-159.143z" />
<glyph unicode="&#xf19b;" glyph-name="openid" d="M0 260q0 80 57.429 150.571t157.143 117.429 223.714 61.714v-98.286q-124-21.714-203.714-85.714t-79.714-145.714q0-86.857 88.286-152.571t222-82.857v777.143l155.429 76v-877.714l-155.429-73.143q-130.286 11.429-236.571 58.286t-167.429 119.143-61.143 155.714zM648 491.428v98.286q158.286-18.857 274.857-89.714l80 45.143 21.143-222.857-300 65.143 84 47.429q-68 40-160 56.571z" />
<glyph unicode="&#xf19e;" glyph-name="yahoo" d="M62.286 877.714q33.143-8.571 61.714-8.571 24.571 0 63.429 8.571 36-63.429 76.286-131.143t95.429-158 79.143-129.714q21.143 34.857 62.571 101.429t67.143 108.571 60 100.571 61.143 108.286q30.857-8 61.143-8 32 0 65.143 8-16-22.286-34.286-50.571t-28.286-44.857-32.286-54.857-28-48q-83.429-141.714-201.714-348.571l7.429-404q-35.429 6.286-60 6.286-23.429 0-60-6.286l7.429 404q-22.857 39.429-96.286 168.857t-123.714 214-103.429 164z" />
<glyph unicode="&#xf1a5;" glyph-name="delicious" d="M0 91.428v548.571q0 68 48.286 116.286t116.286 48.286h548.571q68 0 116.286-48.286t48.286-116.286v-548.571q0-68-48.286-116.286t-116.286-48.286h-548.571q-68 0-116.286 48.286t-48.286 116.286zM36.571 365.714h402.286v-402.286h274.286q53.143 0 90.571 37.429t37.429 90.571v274.286h-402.286v402.286h-274.286q-53.143 0-90.571-37.429t-37.429-90.571v-274.286z" />
<glyph unicode="&#xf1a6;" glyph-name="digg" horiz-adv-x="1170" d="M0 154.857v398.286h187.429v163.429h116.571v-561.714h-304zM117.143 248.571h70.286v210.857h-70.286v-210.857zM350.857 154.857h117.143v398.286h-117.143v-398.286zM350.857 600h117.143v116.571h-117.143v-116.571zM514.857 14.857v93.143h187.429v46.857h-187.429v398.286h304.571v-538.286h-304.571zM632 248.571h70.286v210.857h-70.286v-210.857zM866.286 14.857v93.143h186.857v46.857h-186.857v398.286h304v-538.286h-304zM982.857 248.571h70.286v210.857h-70.286v-210.857z" />
<glyph unicode="&#xf1b4;" glyph-name="behance" horiz-adv-x="1170" d="M0 12.571v720h339.429q49.714 0 88.571-8t72.286-27.143 51.429-55.143 18-88q0-103.429-98.286-150.286 65.143-18.286 98.286-65.714t33.143-116.571q0-42.857-14-78t-37.714-59.143-56.286-40.571-69.143-24-76.571-7.429h-349.143zM158.286 134.857h169.143q117.143 0 117.143 95.429 0 102.857-113.714 102.857h-172.571v-198.286zM158.286 441.714h160.571q44.571 0 70.571 20.857t26 64.857q0 82.286-108.571 82.286h-148.571v-168zM649.714 272.571q0 118.857 74.571 197.429t192.286 78.571q78.857 0 137.429-38.857t87.429-102.286 28.857-141.714q0-9.714-1.143-26.857h-376q0-63.429 32.857-98t95.143-34.571q36 0 69.714 18.286t43.429 49.714h126.286q-57.143-175.429-244-175.429-122.286 0-194.571 75.429t-72.286 198.286zM764 613.143h292v70.857h-292v-70.857zM793.143 329.143h233.143q-10.286 111.429-114.286 111.429-51.429 0-83.429-30t-35.429-81.429z" />
<glyph unicode="&#xf1bc;" glyph-name="spotify" d="M0 365.714q0 119.429 58.857 220.286t159.714 159.714 220.286 58.857 220.286-58.857 159.714-159.714 58.857-220.286-58.857-220.286-159.714-159.714-220.286-58.857-220.286 58.857-159.714 159.714-58.857 220.286zM135.429 506.285q0-17.714 11.714-29.714t29.429-12q6.286 0 22.857 4.571 76 21.143 175.429 21.143 90.857 0 176.857-19.429t144.857-54.286q12-6.857 22.857-6.857 16.571 0 28.857 11.714t12.286 29.429q0 26.857-22.857 40-72 41.714-167.429 63.143t-196 21.429q-116.571 0-208-26.857-13.143-4-22-14.571t-8.857-27.714zM165.143 364q0-14.286 10-24.286t24.286-10q4 0 21.143 4.571 69.714 18.857 143.429 18.857 159.429 0 278.857-70.857 13.714-7.429 21.714-7.429 14.286 0 24.286 10t10 24.286q0 22.857-20 34.857-135.429 80.571-313.143 80.571-87.429 0-173.143-24-27.429-7.429-27.429-36.571zM183.429 232q0-11.429 7.714-19.714t20.286-8.286q2.857 0 21.143 4.571 75.429 15.429 138.857 15.429 129.143 0 226.857-58.857 10.857-6.286 18.857-6.286 10.857 0 18.857 7.714t8 19.714q0 18.286-17.143 29.143-110.286 65.714-255.429 65.714-76 0-164-19.429-24-5.143-24-29.714z" />
<glyph unicode="&#xf1bd;" glyph-name="deviantart" d="M0 6.285v718.857q0 33.143 23.143 56.286t56.286 23.143h718.857q33.143 0 56.286-23.143t23.143-56.286v-718.857q0-33.143-23.143-56.286t-56.286-23.143h-718.857q-33.143 0-56.286 23.143t-23.143 56.286zM40.571 6.285q0-16 11.429-27.429t27.429-11.429h718.857q16 0 27.429 11.429t11.429 27.429v718.857q0 16-11.429 27.429t-27.429 11.429h-718.857q-16 0-27.429-11.429t-11.429-27.429v-718.857zM69.143 6.285v80.571l406.286 111.429-121.143 250.857q2.286 0.571 6.857 1.429t6.857 0.857q97.143 18.286 173.429 12.286t126.286-26.286 82-54q15.429-16-14.286-24-36.571-9.143-146.286-35.429l-55.429 113.143q-63.429 4-137.143-9.143l107.429-221.143 304.571 82.857v-283.429q0-4-3.143-7.143t-7.143-3.143h-718.857q-4 0-7.143 3.143t-3.143 7.143zM69.143 405.143v320q0 4 3.143 7.143t7.143 3.143h718.857q4 0 7.143-3.143t3.143-7.143v-244.571q-48.571 17.143-107.429 29.714-168 36.571-368.571 6.857l-10.286-1.714-37.143 76.571h-133.143l48.571-108.571q-75.429-29.143-131.429-78.286zM140.571 236q-13.714 116 94.857 174.286l73.714-154.286-145.714-34.857q-8-1.714-14.857 2.571t-8 12.286z" />
<glyph unicode="&#xf1be;" glyph-name="soundcloud" horiz-adv-x="1317" d="M0 231.428l9.714 73.143q1.143 5.143 5.143 5.143t5.143-5.143l11.429-73.143-11.429-72q-1.143-5.143-5.143-5.143t-5.143 5.143zM45.143 231.428l13.143 118.286q0 5.143 5.143 5.143 4.571 0 5.714-5.143l14.857-118.286-14.857-116q-1.143-5.143-5.714-5.143-5.143 0-5.143 5.714zM96.571 231.428l12 140q1.143 6.857 6.857 6.857 6.286 0 6.286-6.857l14.286-140-14.286-135.429q0-6.286-6.286-6.286-5.714 0-6.857 6.286zM148 231.428l12 144q0 7.429 7.429 7.429 6.857 0 8-7.429l13.143-144-13.143-139.429q-1.143-7.429-8-7.429-7.429 0-7.429 7.429zM200 231.428l11.429 133.714q0 3.429 2.571 6t6 2.571q8 0 9.143-8.571l12-133.714-12-140.571q-1.143-9.143-9.143-9.143-3.429 0-6 2.571t-2.571 6.571zM252.571 231.428l10.286 217.143q1.143 10.286 10.286 10.286 4 0 6.857-3.143t2.857-7.143l12-217.143-12-140.571q0-4-2.857-7.143t-6.857-3.143q-9.143 0-10.286 10.286zM305.143 230.285l9.143 267.429q1.143 10.857 11.429 10.857 4.571 0 7.714-3.143t3.143-7.714l10.857-267.429-10.857-139.429q0-4.571-3.143-7.714t-7.714-3.143q-10.286 0-11.429 10.857zM358.857 231.428l9.143 289.143q0 5.143 3.714 8.857t8.286 3.714q5.143 0 8.571-3.714t4-8.857l10.286-289.143-10.286-138.286q-1.143-12-12.571-12-10.857 0-12 12zM413.143 231.428l8-137.714q0.571-5.714 4.286-9.429t8.857-3.714q12.571 0 13.714 13.143l9.143 137.714-9.143 298.857q-0.571 5.714-4.286 9.714t-9.429 4q-5.143 0-9.143-4t-4-9.714zM466.857 231.428l8 291.429q0 6.286 4.286 10.286t10 4 10-4 4.286-10.286l8.571-291.429-8.571-136.571q0-5.714-4.286-10t-10-4.286-9.714 4-4.571 10.286zM521.714 230.857l6.857 281.143q0.571 6.857 5.143 11.429t10.857 4.571 10.571-4.571 4.857-11.429l8-281.143-8-134.857q0-6.286-4.571-10.857t-10.857-4.571-10.857 4.571-5.143 10.857zM577.143 231.428q0-0.571 6.286-134.857v-0.571q0-5.714 3.429-9.714 5.143-6.286 13.143-6.286 6.286 0 11.429 5.143 5.143 4 5.143 11.429l0.571 13.714 6.286 120.571-6.857 334.857q0 9.143-7.429 13.714-4.571 2.857-9.143 2.857t-9.143-2.857q-7.429-4.571-7.429-13.714l-0.571-3.429zM630.286 230.857l6.857 363.429v1.714q1.143 8.571 6.857 13.714 5.143 4 11.429 4 4.571 0 8.571-2.857 8-4.571 9.143-14.857l8-365.143-8-132q0-7.429-5.143-12.571t-12.571-5.143-12.571 5.143-5.714 12.571l-3.429 65.143zM688 99.428v513.714q0 13.143 16 18.857 48.571 19.429 103.429 19.429 111.429 0 193.143-75.143t91.429-184.857q30.286 12.571 62.857 12.571 66.857 0 114.286-47.429t47.429-114.857q0-66.857-47.429-114t-114.286-47.143h-449.143q-7.429 1.143-12.571 6.286t-5.143 12.571z" />
<glyph unicode="&#xf1ca;" glyph-name="vine" d="M22.286 734.857h161.714q14.857-124.571 40-227.714t59.714-181.143 69.429-134.571 80-111.429q96.571 96.571 164 232-81.143 41.143-127.429 125.714t-46.286 190.286q0 109.714 59.429 179.714t162.286 70q101.714 0 156-60.286t54.286-170q0-90.857-33.143-163.429-4-0.571-11.143-1.714t-26.286-1.143-36 3.429-35.429 14.571-28.857 29.429q17.714 58.857 17.714 105.143 0 49.714-16.571 75.429t-45.143 25.714q-30.286 0-48.571-28.286t-18.286-80.286q0-106.286 60-167.714t152.571-61.429q35.429 0 69.143 8v-113.143q-57.714-13.143-113.143-13.143-37.143-77.714-94.571-154.857t-103.714-123.143-73.143-60.857q-45.714-25.714-92.571 1.714-16 9.714-34.571 24.857t-48.571 47.714-58.571 73.429-61.429 105.143-60.286 139.429-52.286 179.714-40.286 222.857z" />
</font>
</defs>
</svg>
